  0
SECTION
  2
HEADER
  9
$ACADVER
  1
AC1014
  9
$ACADMAINTVER
 70
     9
  9
$DWGCODEPAGE
  3
ANSI_1252
  9
$INSBASE
 10
0.0
 20
0.0
 30
0.0
  9
$EXTMIN
 10
3.619897883024684
 20
4.049254350052052
 30
0.0
  9
$EXTMAX
 10
9.056440189402898
 20
7.875675740241444
 30
0.0
  9
$LIMMIN
 10
0.0
 20
0.0
  9
$LIMMAX
 10
12.0
 20
9.0
  9
$ORTHOMODE
 70
     0
  9
$REGENMODE
 70
     1
  9
$FILLMODE
 70
     1
  9
$QTEXTMODE
 70
     0
  9
$MIRRTEXT
 70
     1
  9
$DRAGMODE
 70
     2
  9
$LTSCALE
 40
1.0
  9
$OSMODE
 70
     0
  9
$ATTMODE
 70
     1
  9
$TEXTSIZE
 40
0.2
  9
$TRACEWID
 40
0.05
  9
$TEXTSTYLE
  7
STANDARD
  9
$CLAYER
  8
0
  9
$CELTYPE
  6
BYLAYER
  9
$CECOLOR
 62
   256
  9
$CELTSCALE
 40
1.0
  9
$DELOBJ
 70
     1
  9
$DISPSILH
 70
     0
  9
$DIMSCALE
 40
1.0
  9
$DIMASZ
 40
0.18
  9
$DIMEXO
 40
0.0625
  9
$DIMDLI
 40
0.38
  9
$DIMRND
 40
0.0
  9
$DIMDLE
 40
0.0
  9
$DIMEXE
 40
0.18
  9
$DIMTP
 40
0.0
  9
$DIMTM
 40
0.0
  9
$DIMTXT
 40
0.18
  9
$DIMCEN
 40
0.09
  9
$DIMTSZ
 40
0.0
  9
$DIMTOL
 70
     0
  9
$DIMLIM
 70
     0
  9
$DIMTIH
 70
     1
  9
$DIMTOH
 70
     1
  9
$DIMSE1
 70
     0
  9
$DIMSE2
 70
     0
  9
$DIMTAD
 70
     0
  9
$DIMZIN
 70
     0
  9
$DIMBLK
  1

  9
$DIMASO
 70
     1
  9
$DIMSHO
 70
     1
  9
$DIMPOST
  1

  9
$DIMAPOST
  1

  9
$DIMALT
 70
     0
  9
$DIMALTD
 70
     2
  9
$DIMALTF
 40
25.4
  9
$DIMLFAC
 40
1.0
  9
$DIMTOFL
 70
     0
  9
$DIMTVP
 40
0.0
  9
$DIMTIX
 70
     0
  9
$DIMSOXD
 70
     0
  9
$DIMSAH
 70
     0
  9
$DIMBLK1
  1

  9
$DIMBLK2
  1

  9
$DIMSTYLE
  2
STANDARD
  9
$DIMCLRD
 70
     0
  9
$DIMCLRE
 70
     0
  9
$DIMCLRT
 70
     0
  9
$DIMTFAC
 40
1.0
  9
$DIMGAP
 40
0.09
  9
$DIMJUST
 70
     0
  9
$DIMSD1
 70
     0
  9
$DIMSD2
 70
     0
  9
$DIMTOLJ
 70
     1
  9
$DIMTZIN
 70
     0
  9
$DIMALTZ
 70
     0
  9
$DIMALTTZ
 70
     0
  9
$DIMFIT
 70
     3
  9
$DIMUPT
 70
     0
  9
$DIMUNIT
 70
     2
  9
$DIMDEC
 70
     2
  9
$DIMTDEC
 70
     2
  9
$DIMALTU
 70
     2
  9
$DIMALTTD
 70
     2
  9
$DIMTXSTY
  7
STANDARD
  9
$DIMAUNIT
 70
     0
  9
$LUNITS
 70
     2
  9
$LUPREC
 70
     4
  9
$SKETCHINC
 40
0.1
  9
$FILLETRAD
 40
0.5
  9
$AUNITS
 70
     0
  9
$AUPREC
 70
     0
  9
$MENU
  1
.
  9
$ELEVATION
 40
0.0
  9
$PELEVATION
 40
0.0
  9
$THICKNESS
 40
0.0
  9
$LIMCHECK
 70
     0
  9
$BLIPMODE
 70
     0
  9
$CHAMFERA
 40
0.5
  9
$CHAMFERB
 40
0.5
  9
$CHAMFERC
 40
1.0
  9
$CHAMFERD
 40
0.0
  9
$SKPOLY
 70
     0
  9
$TDCREATE
 40
2452177.304853356
  9
$TDUPDATE
 40
2452646.384726273
  9
$TDINDWG
 40
0.0056045139
  9
$TDUSRTIMER
 40
0.0056045139
  9
$USRTIMER
 70
     1
  9
$ANGBASE
 50
0.0
  9
$ANGDIR
 70
     0
  9
$PDMODE
 70
     0
  9
$PDSIZE
 40
0.0
  9
$PLINEWID
 40
0.0
  9
$COORDS
 70
     1
  9
$SPLFRAME
 70
     0
  9
$SPLINETYPE
 70
     6
  9
$SPLINESEGS
 70
     8
  9
$ATTDIA
 70
     1
  9
$ATTREQ
 70
     1
  9
$HANDLING
 70
-16383
  9
$HANDSEED
  5
261
  9
$SURFTAB1
 70
     6
  9
$SURFTAB2
 70
     6
  9
$SURFTYPE
 70
     6
  9
$SURFU
 70
     6
  9
$SURFV
 70
     6
  9
$UCSNAME
  2

  9
$UCSORG
 10
0.0
 20
0.0
 30
0.0
  9
$UCSXDIR
 10
1.0
 20
0.0
 30
0.0
  9
$UCSYDIR
 10
0.0
 20
1.0
 30
0.0
  9
$PUCSNAME
  2

  9
$PUCSORG
 10
0.0
 20
0.0
 30
0.0
  9
$PUCSXDIR
 10
1.0
 20
0.0
 30
0.0
  9
$PUCSYDIR
 10
0.0
 20
1.0
 30
0.0
  9
$USERI1
 70
     0
  9
$USERI2
 70
     0
  9
$USERI3
 70
     0
  9
$USERI4
 70
     0
  9
$USERI5
 70
     0
  9
$USERR1
 40
0.0
  9
$USERR2
 40
0.0
  9
$USERR3
 40
0.0
  9
$USERR4
 40
0.0
  9
$USERR5
 40
0.0
  9
$WORLDVIEW
 70
     1
  9
$SHADEDGE
 70
     3
  9
$SHADEDIF
 70
    70
  9
$TILEMODE
 70
     1
  9
$MAXACTVP
 70
    64
  9
$PINSBASE
 10
0.0
 20
0.0
 30
0.0
  9
$PLIMCHECK
 70
     0
  9
$PEXTMIN
 10
1.000000000000000E+20
 20
1.000000000000000E+20
 30
1.000000000000000E+20
  9
$PEXTMAX
 10
-1.000000000000000E+20
 20
-1.000000000000000E+20
 30
-1.000000000000000E+20
  9
$PLIMMIN
 10
0.0
 20
0.0
  9
$PLIMMAX
 10
12.0
 20
9.0
  9
$UNITMODE
 70
     0
  9
$VISRETAIN
 70
     1
  9
$PLINEGEN
 70
     0
  9
$PSLTSCALE
 70
     1
  9
$TREEDEPTH
 70
  3020
  9
$PICKSTYLE
 70
     1
  9
$CMLSTYLE
  2
STANDARD
  9
$CMLJUST
 70
     0
  9
$CMLSCALE
 40
1.0
  9
$PROXYGRAPHICS
 70
     1
  9
$MEASUREMENT
 70
     0
  0
ENDSEC
  0
SECTION
  2
CLASSES
  0
CLASS
  1
ACDBDICTIONARYWDFLT
  2
AcDbDictionaryWithDefault
  3
AutoCAD 2000
 90
        0
280
     0
281
     0
  0
CLASS
  1
ACDBPLACEHOLDER
  2
AcDbPlaceHolder
  3
AutoCAD 2000
 90
        0
280
     0
281
     0
  0
CLASS
  1
LAYOUT
  2
AcDbLayout
  3
AutoCAD 2000
 90
        0
280
     0
281
     0
  0
CLASS
  1
LONG_TRANSACTION
  2
AcDbLongTransaction
  3
AutoCAD 2000
 90
        0
280
     0
281
     0
  0
CLASS
  1
LWPOLYLINE
  2
AcDbPolyline
  3
AutoCAD 2000
 90
        0
280
     0
281
     1
  0
CLASS
  1
HATCH
  2
AcDbHatch
  3
AutoCAD 2000
 90
        0
280
     0
281
     1
  0
CLASS
  1
XRECORD
  2
AcDbXrecord
  3
AutoCAD 2000
 90
        0
280
     0
281
     0
  0
ENDSEC
  0
SECTION
  2
TABLES
  0
TABLE
  2
VPORT
  5
8
330
0
100
AcDbSymbolTable
 70
     3
  0
VPORT
  5
23A
330
8
100
AcDbSymbolTableRecord
100
AcDbViewportTableRecord
  2
*ACTIVE
 70
     0
 10
0.0
 20
0.0
 11
1.0
 21
1.0
 12
6.58133144125172
 22
5.283088231257247
 13
0.0
 23
0.0
 14
0.5
 24
0.5
 15
0.5
 25
0.5
 16
0.0
 26
0.0
 36
1.0
 17
0.0
 27
0.0
 37
0.0
 40
9.000383529783603
 41
1.462515883100381
 42
50.0
 43
0.0
 44
0.0
 50
0.0
 51
0.0
 71
     0
 72
   100
 73
     1
 74
     3
 75
     0
 76
     0
 77
     0
 78
     0
  0
ENDTAB
  0
TABLE
  2
LTYPE
  5
5
330
0
100
AcDbSymbolTable
 70
     1
  0
LTYPE
  5
14
330
5
100
AcDbSymbolTableRecord
100
AcDbLinetypeTableRecord
  2
BYBLOCK
 70
     0
  3

 72
    65
 73
     0
 40
0.0
  0
LTYPE
  5
15
330
5
100
AcDbSymbolTableRecord
100
AcDbLinetypeTableRecord
  2
BYLAYER
 70
     0
  3

 72
    65
 73
     0
 40
0.0
  0
LTYPE
  5
16
330
5
100
AcDbSymbolTableRecord
100
AcDbLinetypeTableRecord
  2
CONTINUOUS
 70
     0
  3
Solid line
 72
    65
 73
     0
 40
0.0
  0
ENDTAB
  0
TABLE
  2
LAYER
  5
2
330
0
100
AcDbSymbolTable
 70
     4
  0
LAYER
  5
10
330
2
100
AcDbSymbolTableRecord
100
AcDbLayerTableRecord
  2
0
 70
     0
 62
     7
  6
CONTINUOUS
  0
LAYER
  5
34
330
2
100
AcDbSymbolTableRecord
100
AcDbLayerTableRecord
  2
L
 70
     0
 62
     7
  6
CONTINUOUS
  0
LAYER
  5
45
330
2
100
AcDbSymbolTableRecord
100
AcDbLayerTableRecord
  2
DEFPOINTS
 70
     0
 62
     7
  6
CONTINUOUS
  0
LAYER
  5
88
330
2
100
AcDbSymbolTableRecord
100
AcDbLayerTableRecord
  2
TX
 70
     0
 62
   150
  6
CONTINUOUS
  0
ENDTAB
  0
TABLE
  2
STYLE
  5
3
330
0
100
AcDbSymbolTable
 70
     3
  0
STYLE
  5
11
330
3
100
AcDbSymbolTableRecord
100
AcDbTextStyleTableRecord
  2
STANDARD
 70
     0
 40
0.0
 41
1.0
 50
0.0
 71
     0
 42
0.2
  3
txt
  4

  0
STYLE
  5
35
330
3
100
AcDbSymbolTableRecord
100
AcDbTextStyleTableRecord
  2
REG
 70
     0
 40
0.0
 41
1.0
 50
0.0
 71
     0
 42
0.09375
  3
E:\R13\com\fonts\ARCHITXT.SHX
  4

  0
STYLE
  5
36
330
3
100
AcDbSymbolTableRecord
100
AcDbTextStyleTableRecord
  2
DIMTXT
 70
     0
 40
0.0
 41
1.0
 50
0.0
 71
     0
 42
1.125
  3
archt.shx
  4

  0
ENDTAB
  0
TABLE
  2
VIEW
  5
6
330
0
100
AcDbSymbolTable
 70
     0
  0
ENDTAB
  0
TABLE
  2
UCS
  5
7
330
0
100
AcDbSymbolTable
 70
     0
  0
ENDTAB
  0
TABLE
  2
APPID
  5
9
330
0
100
AcDbSymbolTable
 70
     1
  0
APPID
  5
12
330
9
100
AcDbSymbolTableRecord
100
AcDbRegAppTableRecord
  2
ACAD
 70
     0
  0
ENDTAB
  0
TABLE
  2
DIMSTYLE
  5
A
330
0
100
AcDbSymbolTable
 70
     6
  0
DIMSTYLE
105
27
102
{ACAD_REACTORS
330
C1
330
CF
102
}
330
A
100
AcDbSymbolTableRecord
100
AcDbDimStyleTableRecord
  2
STANDARD
 70
     0
  3

  4

  5

  6

  7

 40
1.0
 41
0.18
 42
0.0625
 43
0.38
 44
0.18
 45
0.0
 46
0.0
 47
0.0
 48
0.0
140
0.18
141
0.09
142
0.0
143
25.4
144
1.0
145
0.0
146
1.0
147
0.09
 71
     0
 72
     0
 73
     1
 74
     1
 75
     0
 76
     0
 77
     0
 78
     0
170
     0
171
     2
172
     0
173
     0
174
     0
175
     0
176
     0
177
     0
178
     0
270
     2
271
     2
272
     2
273
     2
274
     2
340
11
275
     0
280
     0
281
     0
282
     0
283
     1
284
     0
285
     0
286
     0
287
     3
288
     0
  0
DIMSTYLE
105
37
330
A
100
AcDbSymbolTableRecord
100
AcDbDimStyleTableRecord
  2
1
 70
     0
  3

  4

  5

  6

  7

 40
1.0
 41
1.125
 42
0.5
 43
0.375
 44
1.19921875
 45
0.0
 46
0.5
 47
0.0
 48
0.0
140
1.125
141
0.125
142
0.0
143
25.4
144
1.0
145
0.0
146
0.8
147
0.5625
 71
     0
 72
     0
 73
     0
 74
     0
 75
     0
 76
     0
 77
     1
 78
     3
170
     0
171
     2
172
     1
173
     0
174
     1
175
     0
176
   133
177
   133
178
   150
270
     2
271
     3
272
     3
273
     2
274
     2
340
36
275
     0
280
     0
281
     0
282
     0
283
     1
284
     0
285
     0
286
     0
287
     4
288
     0
  0
DIMSTYLE
105
38
330
A
100
AcDbSymbolTableRecord
100
AcDbDimStyleTableRecord
  2
1$2
 70
     0
  3

  4

  5
DOTSMALL
  6

  7

 40
1.0
 41
1.5
 42
0.5
 43
0.375
 44
1.19921875
 45
0.0
 46
0.5
 47
0.0
 48
0.0
140
0.75
141
0.125
142
0.0
143
25.4
144
1.0
145
0.0
146
0.8
147
0.5625
 71
     0
 72
     0
 73
     0
 74
     0
 75
     0
 76
     0
 77
     1
 78
     3
170
     0
171
     2
172
     1
173
     0
174
     1
175
     0
176
   133
177
   133
178
   150
270
     2
271
     3
272
     3
273
     2
274
     2
340
36
275
     0
280
     0
281
     0
282
     0
283
     1
284
     0
285
     0
286
     0
287
     4
288
     0
  0
DIMSTYLE
105
39
330
A
100
AcDbSymbolTableRecord
100
AcDbDimStyleTableRecord
  2
1$4
 70
     0
  3

  4

  5

  6

  7
DOTSMALL
 40
1.0
 41
1.5
 42
0.5
 43
0.375
 44
1.19921875
 45
0.0
 46
0.5
 47
0.0
 48
0.0
140
0.75
141
0.125
142
0.0
143
25.4
144
1.0
145
0.0
146
0.8
147
0.5625
 71
     0
 72
     0
 73
     0
 74
     0
 75
     0
 76
     0
 77
     1
 78
     3
170
     0
171
     2
172
     1
173
     1
174
     1
175
     0
176
   133
177
   133
178
   150
270
     2
271
     3
272
     3
273
     2
274
     2
340
36
275
     0
280
     0
281
     0
282
     0
283
     1
284
     0
285
     0
286
     0
287
     4
288
     0
  0
DIMSTYLE
105
3A
330
A
100
AcDbSymbolTableRecord
100
AcDbDimStyleTableRecord
  2
1$3
 70
     0
  3

  4

  5
DOTSMALL
  6

  7

 40
1.0
 41
1.5
 42
0.5
 43
0.375
 44
1.19921875
 45
0.0
 46
0.5
 47
0.0
 48
0.0
140
0.75
141
0.125
142
0.0
143
25.4
144
1.0
145
0.0
146
0.8
147
0.5625
 71
     0
 72
     0
 73
     0
 74
     0
 75
     0
 76
     0
 77
     1
 78
     3
170
     0
171
     2
172
     1
173
     0
174
     1
175
     0
176
   133
177
   133
178
   150
270
     2
271
     3
272
     3
273
     2
274
     2
340
36
275
     0
280
     0
281
     0
282
     0
283
     1
284
     0
285
     0
286
     0
287
     4
288
     0
  0
DIMSTYLE
105
3B
330
A
100
AcDbSymbolTableRecord
100
AcDbDimStyleTableRecord
  2
1$7
 70
     0
  3

  4

  5

  6

  7

 40
1.0
 41
1.0
 42
0.5
 43
0.375
 44
1.19921875
 45
0.0
 46
0.5
 47
0.0
 48
0.0
140
0.75
141
0.125
142
0.0
143
25.4
144
1.0
145
0.0
146
0.8
147
0.5625
 71
     0
 72
     0
 73
     0
 74
     0
 75
     0
 76
     0
 77
     1
 78
     3
170
     0
171
     2
172
     1
173
     0
174
     1
175
     0
176
   133
177
   133
178
   150
270
     2
271
     3
272
     3
273
     2
274
     2
340
36
275
     0
280
     0
281
     0
282
     0
283
     1
284
     0
285
     0
286
     0
287
     4
288
     0
  0
ENDTAB
  0
TABLE
  2
BLOCK_RECORD
  5
1
330
0
100
AcDbSymbolTable
 70
     5
  0
BLOCK_RECORD
  5
1F
102
{ACAD_XDICTIONARY
360
25D
102
}
330
1
100
AcDbSymbolTableRecord
100
AcDbBlockTableRecord
  2
*MODEL_SPACE
  0
BLOCK_RECORD
  5
1B
102
{ACAD_XDICTIONARY
360
25B
102
}
330
1
100
AcDbSymbolTableRecord
100
AcDbBlockTableRecord
  2
*PAPER_SPACE
  0
BLOCK_RECORD
  5
2B
330
1
100
AcDbSymbolTableRecord
100
AcDbBlockTableRecord
  2
_DOT
  0
BLOCK_RECORD
  5
30
330
1
100
AcDbSymbolTableRecord
100
AcDbBlockTableRecord
  2
_DOTSMALL
  0
BLOCK_RECORD
  5
C2
330
1
100
AcDbSymbolTableRecord
100
AcDbBlockTableRecord
  2
*D3
  0
BLOCK_RECORD
  5
D0
330
1
100
AcDbSymbolTableRecord
100
AcDbBlockTableRecord
  2
*D4
  0
ENDTAB
  0
ENDSEC
  0
SECTION
  2
BLOCKS
  0
BLOCK
  5
20
330
1F
100
AcDbEntity
  8
0
100
AcDbBlockBegin
  2
*MODEL_SPACE
 70
     0
 10
0.0
 20
0.0
 30
0.0
  3
*MODEL_SPACE
  1

  0
ENDBLK
  5
21
330
1F
100
AcDbEntity
  8
0
100
AcDbBlockEnd
  0
BLOCK
  5
1C
330
1B
100
AcDbEntity
 67
     1
  8
0
100
AcDbBlockBegin
  2
*PAPER_SPACE
 70
     0
 10
0.0
 20
0.0
 30
0.0
  3
*PAPER_SPACE
  1

  0
ENDBLK
  5
1D
330
1B
100
AcDbEntity
 67
     1
  8
0
100
AcDbBlockEnd
  0
BLOCK
  5
2E
330
2B
100
AcDbEntity
  8
0
100
AcDbBlockBegin
  2
_DOT
 70
     0
 10
0.0
 20
0.0
 30
0.0
  3
_DOT
  1

  0
LWPOLYLINE
  5
2C
330
2B
100
AcDbEntity
  8
L
 62
     0
100
AcDbPolyline
 90
        2
 70
     1
 43
0.5
 10
-0.25
 20
0.0
 42
1.0
 10
0.25
 20
0.0
 42
1.0
  0
LINE
  5
2D
330
2B
100
AcDbEntity
  8
L
 62
     0
100
AcDbLine
 10
-0.5
 20
0.0
 30
0.0
 11
-1.0
 21
0.0
 31
0.0
  0
ENDBLK
  5
2F
330
2B
100
AcDbEntity
  8
0
100
AcDbBlockEnd
  0
BLOCK
  5
32
330
30
100
AcDbEntity
  8
0
 48
0.116666
100
AcDbBlockBegin
  2
_DOTSMALL
 70
     0
 10
0.0
 20
0.0
 30
0.0
  3
_DOTSMALL
  1

  0
LWPOLYLINE
  5
31
330
30
100
AcDbEntity
  8
0
  6
BYBLOCK
 62
     0
100
AcDbPolyline
 90
        2
 70
     1
 43
0.5
 10
-0.0625
 20
0.0
 42
1.0
 10
0.0625
 20
0.0
 42
1.0
  0
ENDBLK
  5
33
330
30
100
AcDbEntity
  8
0
 48
0.116666
100
AcDbBlockEnd
  0
BLOCK
  5
CD
330
C2
100
AcDbEntity
  8
0
100
AcDbBlockBegin
  2
*D3
 70
     1
 10
0.0
 20
0.0
 30
0.0
  3
*D3
  1

  0
LINE
  5
C3
330
C2
100
AcDbEntity
  8
0
 62
     0
100
AcDbLine
 10
4.713208989025467
 20
7.184002753741104
 30
0.0
 11
4.713208989025467
 21
7.875675740241444
 31
0.0
  0
LINE
  5
C4
330
C2
100
AcDbEntity
  8
0
 62
     0
100
AcDbLine
 10
7.988208989025558
 20
7.184002753741104
 30
0.0
 11
7.988208989025558
 21
7.875675740241444
 31
0.0
  0
LINE
  5
C5
330
C2
100
AcDbEntity
  8
0
 62
     0
100
AcDbLine
 10
4.893208989025467
 20
7.695675740241444
 30
0.0
 11
5.990708989025512
 21
7.695675740241444
 31
0.0
  0
LINE
  5
C6
330
C2
100
AcDbEntity
  8
0
 62
     0
100
AcDbLine
 10
7.808208989025558
 20
7.695675740241444
 30
0.0
 11
6.710708989025513
 21
7.695675740241444
 31
0.0
  0
SOLID
  5
C7
330
C2
100
AcDbEntity
  8
0
 62
     0
100
AcDbTrace
 10
4.893208989025467
 20
7.725675740241444
 30
0.0
 11
4.893208989025467
 21
7.665675740241444
 31
0.0
 12
4.713208989025467
 22
7.695675740241444
 32
0.0
 13
4.713208989025467
 23
7.695675740241444
 33
0.0
  0
SOLID
  5
C8
330
C2
100
AcDbEntity
  8
0
 62
     0
100
AcDbTrace
 10
7.808208989025558
 20
7.725675740241444
 30
0.0
 11
7.808208989025558
 21
7.665675740241444
 31
0.0
 12
7.988208989025558
 22
7.695675740241444
 32
0.0
 13
7.988208989025558
 23
7.695675740241444
 33
0.0
  0
MTEXT
  5
C9
330
C2
100
AcDbEntity
  8
0
 62
     0
100
AcDbMText
 10
6.350708989025513
 20
7.695675740241444
 30
0.0
 40
0.18
 41
0.0
 71
     5
 72
     1
  1
\A1;3.28
1001
ACAD
1000
MTEXTBEGIN
1070
    73
1070
     1
1070
    44
1040
1.0
1070
    74
1070
     0
1000
MTEXTEND
  0
POINT
  5
CA
330
C2
100
AcDbEntity
  8
DEFPOINTS
 62
     0
100
AcDbPoint
 10
4.713208989025467
 20
7.121502753741104
 30
0.0
  0
POINT
  5
CB
330
C2
100
AcDbEntity
  8
DEFPOINTS
 62
     0
100
AcDbPoint
 10
7.988208989025558
 20
7.121502753741104
 30
0.0
  0
POINT
  5
CC
330
C2
100
AcDbEntity
  8
DEFPOINTS
 62
     0
100
AcDbPoint
 10
7.988208989025558
 20
7.695675740241444
 30
0.0
  0
ENDBLK
  5
CE
330
C2
100
AcDbEntity
  8
0
100
AcDbBlockEnd
  0
BLOCK
  5
DB
330
D0
100
AcDbEntity
  8
0
100
AcDbBlockBegin
  2
*D4
 70
     1
 10
0.0
 20
0.0
 30
0.0
  3
*D4
  1

  0
LINE
  5
D1
330
D0
100
AcDbEntity
  8
0
 62
     0
100
AcDbLine
 10
4.660708989025458
 20
7.131502753741095
 30
0.0
 11
3.847651800131207
 21
7.131502753741095
 31
0.0
  0
LINE
  5
D2
330
D0
100
AcDbEntity
  8
0
 62
     0
100
AcDbLine
 10
4.660708989025458
 20
5.381502753741095
 30
0.0
 11
3.847651800131206
 21
5.381502753741095
 31
0.0
  0
LINE
  5
D3
330
D0
100
AcDbEntity
  8
0
 62
     0
100
AcDbLine
 10
4.027651800131207
 20
6.951502753741095
 30
0.0
 11
4.027651800131207
 21
6.436502753741095
 31
0.0
  0
LINE
  5
D4
330
D0
100
AcDbEntity
  8
0
 62
     0
100
AcDbLine
 10
4.027651800131206
 20
5.561502753741095
 30
0.0
 11
4.027651800131207
 21
6.076502753741095
 31
0.0
  0
SOLID
  5
D5
330
D0
100
AcDbEntity
  8
0
 62
     0
100
AcDbTrace
 10
3.997651800131206
 20
6.951502753741095
 30
0.0
 11
4.057651800131207
 21
6.951502753741095
 31
0.0
 12
4.027651800131207
 22
7.131502753741095
 32
0.0
 13
4.027651800131207
 23
7.131502753741095
 33
0.0
  0
SOLID
  5
D6
330
D0
100
AcDbEntity
  8
0
 62
     0
100
AcDbTrace
 10
3.997651800131206
 20
5.561502753741095
 30
0.0
 11
4.057651800131206
 21
5.561502753741095
 31
0.0
 12
4.027651800131206
 22
5.381502753741095
 32
0.0
 13
4.027651800131206
 23
5.381502753741095
 33
0.0
  0
MTEXT
  5
D7
330
D0
100
AcDbEntity
  8
0
 62
     0
100
AcDbMText
 10
4.027651800131205
 20
6.256502753741096
 30
0.0
 40
0.18
 41
0.0
 71
     5
 72
     1
  1
\A1;1.75
1001
ACAD
1000
MTEXTBEGIN
1070
    73
1070
     1
1070
    44
1040
1.0
1070
    74
1070
     0
1000
MTEXTEND
  0
POINT
  5
D8
330
D0
100
AcDbEntity
  8
DEFPOINTS
 62
     0
100
AcDbPoint
 10
4.723208989025458
 20
7.131502753741095
 30
0.0
  0
POINT
  5
D9
330
D0
100
AcDbEntity
  8
DEFPOINTS
 62
     0
100
AcDbPoint
 10
4.723208989025458
 20
5.381502753741095
 30
0.0
  0
POINT
  5
DA
330
D0
100
AcDbEntity
  8
DEFPOINTS
 62
     0
100
AcDbPoint
 10
4.027651800131206
 20
5.381502753741095
 30
0.0
  0
ENDBLK
  5
DC
330
D0
100
AcDbEntity
  8
0
100
AcDbBlockEnd
  0
ENDSEC
  0
SECTION
  2
ENTITIES
  0
LWPOLYLINE
  5
BD
330
1F
100
AcDbEntity
  8
L
 62
     5
 48
0.116666
100
AcDbPolyline
 90
        2
 70
     0
 43
0.028125
 10
3.619897883024684
 20
4.239972951353728
 10
9.056440189402898
 20
4.239972951353728
  0
TEXT
  5
BE
330
1F
100
AcDbEntity
  8
L
 62
     3
 48
0.116666
100
AcDbText
 10
3.713633725705783
 20
4.333708794034713
 30
0.0
 40
0.140625
  1
SERIES 3  - 3 1/4' RECTANGULAR POST #1220
  7
REG
100
AcDbText
  0
TEXT
  5
C0
330
1F
100
AcDbEntity
  8
TX
 48
0.116666
100
AcDbText
 10
3.713633725705783
 20
4.052487108672742
 30
0.0
 40
0.09375
  1
SCALE : FULL SIZE
  7
REG
 11
3.713633725705783
 21
4.146237108672742
 31
0.0
100
AcDbText
 73
     3
  0
DIMENSION
  5
C1
330
1F
100
AcDbEntity
  8
0
100
AcDbDimension
  2
*D3
 10
7.988208989025558
 20
7.695675740241444
 30
0.0
 11
6.350708989025513
 21
7.695675740241444
 31
0.0
 70
    32
  3
STANDARD
100
AcDbAlignedDimension
 13
4.713208989025467
 23
7.121502753741104
 33
0.0
 14
7.988208989025558
 24
7.121502753741104
 34
0.0
100
AcDbRotatedDimension
  0
DIMENSION
  5
CF
330
1F
100
AcDbEntity
  8
0
100
AcDbDimension
  2
*D4
 10
4.027651800131206
 20
5.381502753741095
 30
0.0
 11
4.027651800131205
 21
6.256502753741096
 31
0.0
 70
    32
  3
STANDARD
100
AcDbAlignedDimension
 13
4.723208989025458
 23
7.131502753741095
 33
0.0
 14
4.723208989025458
 24
5.381502753741095
 34
0.0
 50
90.0
100
AcDbRotatedDimension
  0
LWPOLYLINE
  5
165
330
1F
100
AcDbEntity
  8
L
 62
     5
100
AcDbPolyline
 90
        8
 70
     1
 43
0.0
 10
5.711208989025514
 20
6.586502753741193
 42
-0.4142135623730951
 10
5.649208989025616
 20
6.648502753741148
 10
5.649208989025559
 20
6.979502753741051
 42
-0.4142135623730951
 10
5.711208989025514
 20
7.041502753741063
 10
6.990208989025511
 20
7.041502753741063
 42
-0.4142135623736321
 10
7.052208989025636
 20
6.979502753741165
 10
7.052208989025807
 20
6.648502753741148
 42
-0.4142135623736322
 10
6.990208989025511
 20
6.586502753741136
  0
LWPOLYLINE
  5
194
330
1F
100
AcDbEntity
  8
L
 62
     5
100
AcDbPolyline
 90
       53
 70
     1
 43
0.0
 10
5.547096948823188
 20
6.271502753741097
 42
-0.2729194727208851
 10
5.533969858533214
 20
6.279244689224975
 10
5.533969858533132
 20
6.279244689224929
 42
0.4608758526566998
 10
5.417779847931636
 20
6.303039713643287
 10
5.417779847931703
 20
6.303039713643201
 42
-1.000000000000743
 10
5.360019088151964
 20
6.377199639679233
 10
5.360019088151865
 20
6.377199639679359
 42
-0.2625255793034581
 10
5.527137560454205
 20
6.402159314803078
 10
5.527137560454243
 20
6.402159314803179
 42
0.5257067557231655
 10
5.569208989025655
 20
6.431114857785154
 10
5.569208989025462
 20
6.431114857785154
 10
5.569208989025462
 20
6.979502753741165
 42
0.4142135623730951
 10
5.507208989025563
 20
7.041502753741063
 10
4.875208989025502
 20
7.041502753741063
 42
0.4142135623730951
 10
4.813208989025604
 20
6.979502753741165
 10
4.813208989025604
 20
5.533502753741139
 10
4.813208989025547
 20
5.533502753741139
 42
0.4142135623730951
 10
4.875208989025502
 20
5.471502753741184
 10
4.875208989025502
 20
5.471502753741127
 10
5.547208989025527
 20
5.471502753741127
 42
0.4142135623730951
 10
5.557208989025518
 20
5.481502753741118
 10
5.557208989025518
 20
5.755502753741119
 10
5.557208989025546
 20
5.755502753741115
 42
-0.3473121754302299
 10
5.638261620604557
 20
5.834750183507972
 10
5.638261620604558
 20
5.834750183507964
 42
0.3745554556709762
 10
5.651208989025672
 20
5.849609076589239
 10
5.651208989025569
 20
5.849609076589239
 10
5.651208989025569
 20
5.914396430892928
 10
5.651208989025672
 20
5.914396430892928
 42
0.3745554556709761
 10
5.638261620604558
 20
5.929255323974202
 10
5.638261620604551
 20
5.929255323974131
 42
-0.3473121754305754
 10
5.557208989025469
 20
6.008502753741155
 10
5.557208989025518
 20
6.008502753741161
 10
5.557208989025518
 20
6.047727755353797
 10
5.557208989025556
 20
6.047727755353797
 42
0.5058994408044498
 10
5.51697007276936
 20
6.077319011265129
 10
5.516970072769372
 20
6.077319011265086
 42
-0.2458695192318484
 10
5.360019088151879
 20
6.105805867802876
 10
5.360019088151964
 20
6.105805867802985
 42
-1.000000000000743
 10
5.417779847931703
 20
6.179965793839016
 10
5.417779847931631
 20
6.179965793838924
 42
0.4608758526566998
 10
5.533969858533139
 20
6.203760818257284
 10
5.533969858533112
 20
6.2037608182573
 42
-0.272919472722478
 10
5.547096948822961
 20
6.211502753741156
 10
5.547096948822961
 20
6.211502753741136
 10
5.636208989025469
 20
6.211502753741136
 10
5.636208989025469
 20
6.211502753741193
 42
0.4142135623753149
 10
5.651208989025739
 20
6.226502753741122
 10
5.651208989025569
 20
6.226502753741122
 10
5.651208989025569
 20
6.256502753741095
 10
5.651208989025739
 20
6.256502753741095
 42
0.4142135623753149
 10
5.636208989025469
 20
6.271502753741025
 10
5.636208989025469
 20
6.271502753741081
  0
LWPOLYLINE
  5
1BE
330
1F
100
AcDbEntity
  8
L
 62
     5
100
AcDbPolyline
 90
       54
 70
     1
 43
0.0
 10
7.194208989025462
 20
7.041502753741063
 10
7.826208989025523
 20
7.041502753741063
 42
-0.414213562372558
 10
7.888208989025535
 20
6.979502753741165
 10
7.888208989025649
 20
6.979502753741165
 10
7.888208989025649
 20
5.533502753741139
 10
7.888208989025592
 20
5.533502753741139
 42
-0.4142135623725581
 10
7.826208989025523
 20
5.471502753741184
 10
7.826208989025523
 20
5.471502753741127
 10
7.144208989025507
 20
5.471502753741127
 10
7.144208989025507
 20
5.755502753741119
 10
7.144208989025586
 20
5.755502753741128
 42
0.3473121754304497
 10
7.063156357446693
 20
5.834750183507954
 10
7.063156357446694
 20
5.834750183507964
 42
-0.3745554556691112
 10
7.050208989025467
 20
5.849609076589239
 10
7.050208989025456
 20
5.849609076589239
 10
7.050208989025456
 20
5.914396430892928
 10
7.050208989025467
 20
5.914396430892928
 42
-0.3745554556691113
 10
7.063156357446694
 20
5.929255323974203
 10
7.0631563574467
 20
5.929255323974147
 42
0.3473121754307952
 10
7.144208989025666
 20
6.008502753741141
 10
7.144208989025507
 20
6.008502753741161
 10
7.144208989025507
 20
6.047727755353797
 10
7.144208989025429
 20
6.047727755353797
 42
-0.5058994408041066
 10
7.184447905281646
 20
6.077319011265178
 10
7.184447905281674
 20
6.077319011265266
 42
0.2458695192317553
 10
7.34139888989934
 20
6.105805867802918
 10
7.341398889899331
 20
6.10580586780293
 42
1.000000000002652
 10
7.283638130119364
 20
6.179965793838961
 10
7.283638130119389
 20
6.179965793838929
 42
-0.4608758526566998
 10
7.167448119517892
 20
6.203760818257288
 10
7.167448119517914
 20
6.2037608182573
 42
0.2729194727224781
 10
7.154321029228064
 20
6.211502753741156
 10
7.154321029228064
 20
6.211502753741136
 10
7.065208989025556
 20
6.211502753741136
 10
7.065208989025556
 20
6.211502753741193
 42
-0.4142135623753149
 10
7.050208989025286
 20
6.226502753741122
 10
7.050208989025456
 20
6.226502753741122
 10
7.050208989025456
 20
6.256502753741095
 10
7.050208989025286
 20
6.256502753741095
 42
-0.4142135623753151
 10
7.065208989025556
 20
6.271502753741025
 10
7.065208989025556
 20
6.271502753741081
 10
7.154321029228064
 20
6.271502753741081
 10
7.154321029228064
 20
6.271502753741061
 42
0.2729194727224781
 10
7.167448119517914
 20
6.279244689224918
 10
7.167448119517892
 20
6.279244689224929
 42
-0.4608758526566998
 10
7.283638130119389
 20
6.303039713643288
 10
7.283638130119364
 20
6.303039713643256
 42
1.000000000002652
 10
7.341398889899331
 20
6.377199639679288
 10
7.341398889899386
 20
6.377199639679358
 42
0.2625255793034581
 10
7.174280417597048
 20
6.402159314803077
 10
7.174280417597012
 20
6.402159314803172
 42
-0.5257067557215773
 10
7.132208989025484
 20
6.431114857785154
 10
7.132208989025563
 20
6.431114857785154
 10
7.132208989025563
 20
6.979502753741165
 42
-0.4142135623730951
  0
LWPOLYLINE
  5
1E3
330
1F
100
AcDbEntity
  8
L
 62
     5
100
AcDbPolyline
 90
       95
 70
     1
 43
0.0
 10
7.988208989025785
 20
7.121502753741104
 10
7.988208989025558
 20
7.121502753741104
 10
7.988208989025785
 20
5.391502753741086
 42
-0.4142135623797547
 10
7.978208989025567
 20
5.381502753741095
 10
6.966708989025498
 20
5.381502753741095
 42
-0.4142135623797547
 10
6.95670898902528
 20
5.391502753741086
 10
6.956708989025507
 20
5.391502753741086
 10
6.956708989025507
 20
5.600502753741146
 10
6.956708989025508
 20
5.600502753741146
 42
-0.4142135623730951
 10
6.987708989025456
 20
5.631502753741094
 10
6.987708989025456
 20
5.631502753741095
 10
7.040208989025465
 20
5.631502753741095
 42
0.4142135623797547
 10
7.050208989025684
 20
5.641502753741086
 10
7.050208989025456
 20
5.641502753741086
 10
7.050208989025456
 20
5.746502753741104
 42
0.4142135623730951
 10
7.040208989025465
 20
5.756502753741095
 10
6.987708989025456
 20
5.756502753741095
 10
6.987708989025456
 20
5.756502753741038
 42
-0.4142135623741692
 10
6.95670898902545
 20
5.787502753741158
 10
6.956708989025507
 20
5.787502753741158
 10
6.956708989025507
 20
5.975502753741146
 10
6.956708989025508
 20
5.975502753741146
 42
-0.4142135623730951
 10
6.987708989025456
 20
6.006502753741094
 10
6.987708989025456
 20
6.006502753741095
 10
7.040208989025465
 20
6.006502753741095
 42
0.4142135623797547
 10
7.050208989025684
 20
6.016502753741086
 10
7.050208989025456
 20
6.016502753741086
 10
7.050208989025456
 20
6.121502753741104
 10
7.050208989025684
 20
6.121502753741104
 42
0.4142135623797547
 10
7.040208989025465
 20
6.131502753741095
 10
6.987708989025456
 20
6.131502753741095
 10
6.987708989025456
 20
6.131502753741039
 42
-0.4142135623741692
 10
6.956708989025451
 20
6.162502753741158
 10
6.956708989025507
 20
6.162502753741158
 10
6.956708989025507
 20
6.350502753741146
 10
6.956708989025508
 20
6.350502753741146
 42
-0.4142135623730951
 10
6.987708989025456
 20
6.381502753741094
 10
6.987708989025456
 20
6.381502753741095
 10
7.040208989025465
 20
6.381502753741095
 42
0.4142135623797547
 10
7.050208989025684
 20
6.391502753741086
 10
7.050208989025456
 20
6.391502753741086
 10
7.050208989025456
 20
6.475502753741146
 42
0.4142135623730951
 10
7.019208989025507
 20
6.506502753741095
 10
6.610708989025503
 20
6.506502753741095
 10
6.600708989025513
 20
6.516502753741086
 10
6.590708989025522
 20
6.506502753741095
 10
6.110708989025503
 20
6.506502753741095
 10
6.100708989025513
 20
6.516502753741086
 10
6.090708989025522
 20
6.506502753741095
 10
5.682208989025518
 20
6.506502753741095
 42
0.4142135623730951
 10
5.651208989025569
 20
6.475502753741146
 10
5.651208989025569
 20
6.396502753741081
 10
5.651208989025398
 20
6.396502753741081
 42
0.4142135623775349
 10
5.666208989025669
 20
6.381502753741037
 10
5.666208989025669
 20
6.381502753741095
 10
5.713708989025569
 20
6.381502753741095
 42
-0.4142135623730951
 10
5.744708989025518
 20
6.350502753741146
 10
5.744708989025518
 20
6.162502753741158
 10
5.744708989025575
 20
6.162502753741158
 42
-0.4142135623741695
 10
5.713708989025569
 20
6.131502753741038
 10
5.713708989025569
 20
6.131502753741095
 10
5.66120898902556
 20
6.131502753741095
 42
0.4142135623797547
 10
5.651208989025342
 20
6.121502753741104
 10
5.651208989025569
 20
6.121502753741104
 10
5.651208989025569
 20
6.016502753741086
 10
5.651208989025342
 20
6.016502753741086
 42
0.4142135623797547
 10
5.66120898902556
 20
6.006502753741095
 10
5.713708989025569
 20
6.006502753741095
 10
5.713708989025569
 20
6.006502753741094
 42
-0.4142135623730951
 10
5.744708989025517
 20
5.975502753741146
 10
5.744708989025518
 20
5.975502753741146
 10
5.744708989025518
 20
5.787502753741158
 10
5.744708989025575
 20
5.787502753741158
 42
-0.4142135623741695
 10
5.713708989025569
 20
5.756502753741038
 10
5.713708989025569
 20
5.756502753741095
 10
5.66120898902556
 20
5.756502753741095
 42
0.4142135623797547
 10
5.651208989025342
 20
5.746502753741104
 10
5.651208989025569
 20
5.746502753741104
 10
5.651208989025569
 20
5.641502753741086
 10
5.651208989025342
 20
5.641502753741086
 42
0.4142135623797547
 10
5.66120898902556
 20
5.631502753741095
 10
5.713708989025569
 20
5.631502753741095
 10
5.713708989025569
 20
5.631502753741094
 42
-0.4142135623730951
 10
5.744708989025517
 20
5.600502753741146
 10
5.744708989025518
 20
5.600502753741146
 10
5.744708989025518
 20
5.391502753741086
 10
5.744708989025745
 20
5.391502753741086
 42
-0.4142135623797547
 10
5.734708989025527
 20
5.381502753741095
 10
4.723208989025458
 20
5.381502753741095
 42
-0.4142135623797547
 10
4.71320898902524
 20
5.391502753741086
 10
4.713208989025467
 20
5.391502753741086
 10
4.713208989025467
 20
7.121502753741104
 10
4.71320898902524
 20
7.121502753741104
 42
-0.4142135623797547
 10
4.723208989025458
 20
7.131502753741095
 10
7.978208989025567
 20
7.131502753741095
 42
-0.4142135623797547
  0
ENDSEC
  0
SECTION
  2
OBJECTS
  0
DICTIONARY
  5
C
330
0
100
AcDbDictionary
  3
ACAD_GROUP
350
D
  3
ACAD_LAYOUT
350
1A
  3
ACAD_MLINESTYLE
350
17
  3
ACAD_PLOTSETTINGS
350
19
  3
ACAD_PLOTSTYLENAME
350
E
  3
ACDBHEADERROUNDTRIPXREC
350
23B
  0
DICTIONARY
  5
25D
330
1F
100
AcDbDictionary
280
     1
  3
ACAD_LAYOUTSELFREF
360
25E
  0
DICTIONARY
  5
25B
330
1B
100
AcDbDictionary
280
     1
  3
ACAD_LAYOUTSELFREF
360
25C
  0
DICTIONARY
  5
D
102
{ACAD_REACTORS
330
C
102
}
330
C
100
AcDbDictionary
  0
DICTIONARY
  5
1A
102
{ACAD_REACTORS
330
C
102
}
330
C
100
AcDbDictionary
  0
DICTIONARY
  5
17
102
{ACAD_REACTORS
330
C
102
}
330
C
100
AcDbDictionary
  3
STANDARD
350
18
  0
DICTIONARY
  5
19
102
{ACAD_REACTORS
330
C
102
}
330
C
100
AcDbDictionary
  0
ACDBDICTIONARYWDFLT
  5
E
102
{ACAD_REACTORS
330
C
102
}
330
C
100
AcDbDictionary
281
     1
  3
Normal
350
F
100
AcDbDictionaryWithDefault
340
F
  0
DICTIONARY
  5
23B
102
{ACAD_REACTORS
330
C
102
}
330
C
100
AcDbDictionary
  3
CEPSNTYPE
350
245
  3
FINGERPRINTGUID
350
246
  3
HYPERLINKBASE
350
23E
  3
INSUNITS
350
244
  3
LAYOUTDICT
350
240
  3
LWETCUNION
350
243
  3
PLOTSETDICT
350
241
  3
PLOTSTYLNAMDICT
350
242
  3
PSVPSCALE
350
248
  3
PUCSBASE
350
24B
  3
PUCSORGBACK
350
251
  3
PUCSORGBOTTOM
350
24D
  3
PUCSORGFRONT
350
250
  3
PUCSORGLEFT
350
24E
  3
PUCSORGRIGHT
350
24F
  3
PUCSORGTOP
350
24C
  3
PUCSORTHOREF
350
249
  3
PUCSORTHOVIEW
350
24A
  3
STYLESHEET
350
23F
  3
TSTACKALIGN
350
23C
  3
TSTACKSIZE
350
23D
  3
UCSBASE
350
254
  3
UCSORGBACK
350
25A
  3
UCSORGBOTTOM
350
256
  3
UCSORGFRONT
350
259
  3
UCSORGLEFT
350
257
  3
UCSORGRIGHT
350
258
  3
UCSORGTOP
350
255
  3
UCSORTHOREF
350
252
  3
UCSORTHOVIEW
350
253
  3
VERSIONGUID
350
247
  0
XRECORD
  5
25E
102
{ACAD_REACTORS
330
25D
102
}
330
25D
100
AcDbXrecord
340
1F
  0
XRECORD
  5
25C
102
{ACAD_REACTORS
330
25B
102
}
330
25B
100
AcDbXrecord
340
1B
  0
MLINESTYLE
  5
18
102
{ACAD_REACTORS
330
17
102
}
330
17
100
AcDbMlineStyle
  2
STANDARD
 70
     0
  3

 62
   256
 51
90.0
 52
90.0
 71
     2
 49
0.5
 62
   256
  6
BYLAYER
 49
-0.5
 62
   256
  6
BYLAYER
  0
ACDBPLACEHOLDER
  5
F
102
{ACAD_REACTORS
330
E
102
}
330
E
100
AcDbPlaceHolder
280
     0
  0
XRECORD
  5
245
102
{ACAD_REACTORS
330
23B
102
}
330
23B
100
AcDbXrecord
 90
        0
  0
XRECORD
  5
246
102
{ACAD_REACTORS
330
23B
102
}
330
23B
100
AcDbXrecord
  1
{DC175E3D-AE85-11D5-9A93-0040C77E826B}
  0
XRECORD
  5
23E
102
{ACAD_REACTORS
330
23B
102
}
330
23B
100
AcDbXrecord
  1

  0
XRECORD
  5
244
102
{ACAD_REACTORS
330
23B
102
}
330
23B
100
AcDbXrecord
 90
        1
  0
XRECORD
  5
240
102
{ACAD_REACTORS
330
23B
102
}
330
23B
100
AcDbXrecord
340
1A
  0
XRECORD
  5
243
102
{ACAD_REACTORS
330
23B
102
}
330
23B
100
AcDbXrecord
 90
    10781
  0
XRECORD
  5
241
102
{ACAD_REACTORS
330
23B
102
}
330
23B
100
AcDbXrecord
340
19
  0
XRECORD
  5
242
102
{ACAD_REACTORS
330
23B
102
}
330
23B
100
AcDbXrecord
340
E
  0
XRECORD
  5
248
102
{ACAD_REACTORS
330
23B
102
}
330
23B
100
AcDbXrecord
 40
0.0
  0
XRECORD
  5
24B
102
{ACAD_REACTORS
330
23B
102
}
330
23B
100
AcDbXrecord
340
0
  0
XRECORD
  5
251
102
{ACAD_REACTORS
330
23B
102
}
330
23B
100
AcDbXrecord
 10
0.0
 20
0.0
 30
0.0
  0
XRECORD
  5
24D
102
{ACAD_REACTORS
330
23B
102
}
330
23B
100
AcDbXrecord
 10
0.0
 20
0.0
 30
0.0
  0
XRECORD
  5
250
102
{ACAD_REACTORS
330
23B
102
}
330
23B
100
AcDbXrecord
 10
0.0
 20
0.0
 30
0.0
  0
XRECORD
  5
24E
102
{ACAD_REACTORS
330
23B
102
}
330
23B
100
AcDbXrecord
 10
0.0
 20
0.0
 30
0.0
  0
XRECORD
  5
24F
102
{ACAD_REACTORS
330
23B
102
}
330
23B
100
AcDbXrecord
 10
0.0
 20
0.0
 30
0.0
  0
XRECORD
  5
24C
102
{ACAD_REACTORS
330
23B
102
}
330
23B
100
AcDbXrecord
 10
0.0
 20
0.0
 30
0.0
  0
XRECORD
  5
249
102
{ACAD_REACTORS
330
23B
102
}
330
23B
100
AcDbXrecord
340
0
  0
XRECORD
  5
24A
102
{ACAD_REACTORS
330
23B
102
}
330
23B
100
AcDbXrecord
 70
     0
  0
XRECORD
  5
23F
102
{ACAD_REACTORS
330
23B
102
}
330
23B
100
AcDbXrecord
  1

  0
XRECORD
  5
23C
102
{ACAD_REACTORS
330
23B
102
}
330
23B
100
AcDbXrecord
 90
        1
  0
XRECORD
  5
23D
102
{ACAD_REACTORS
330
23B
102
}
330
23B
100
AcDbXrecord
 90
       70
  0
XRECORD
  5
254
102
{ACAD_REACTORS
330
23B
102
}
330
23B
100
AcDbXrecord
340
0
  0
XRECORD
  5
25A
102
{ACAD_REACTORS
330
23B
102
}
330
23B
100
AcDbXrecord
 10
0.0
 20
0.0
 30
0.0
  0
XRECORD
  5
256
102
{ACAD_REACTORS
330
23B
102
}
330
23B
100
AcDbXrecord
 10
0.0
 20
0.0
 30
0.0
  0
XRECORD
  5
259
102
{ACAD_REACTORS
330
23B
102
}
330
23B
100
AcDbXrecord
 10
0.0
 20
0.0
 30
0.0
  0
XRECORD
  5
257
102
{ACAD_REACTORS
330
23B
102
}
330
23B
100
AcDbXrecord
 10
0.0
 20
0.0
 30
0.0
  0
XRECORD
  5
258
102
{ACAD_REACTORS
330
23B
102
}
330
23B
100
AcDbXrecord
 10
0.0
 20
0.0
 30
0.0
  0
XRECORD
  5
255
102
{ACAD_REACTORS
330
23B
102
}
330
23B
100
AcDbXrecord
 10
0.0
 20
0.0
 30
0.0
  0
XRECORD
  5
252
102
{ACAD_REACTORS
330
23B
102
}
330
23B
100
AcDbXrecord
340
0
  0
XRECORD
  5
253
102
{ACAD_REACTORS
330
23B
102
}
330
23B
100
AcDbXrecord
 70
     0
  0
XRECORD
  5
247
102
{ACAD_REACTORS
330
23B
102
}
330
23B
100
AcDbXrecord
  1
{44DC4FD6-8950-4DDB-994B-37CE68195928}
  0
ENDSEC
  0
EOF
